#TITLE:The Real Entertainers;
#SUBTITLE:;
#ARTIST:NaHa NaHa VS Gatchoon;
#TITLETRANSLIT:;
#SUBTITLETRANSLIT:;
#ARTISTTRANSLIT:;
#CREDIT:;
#BANNER:Entertainers-banner.png;
#BACKGROUND:Entertainers-bg.png;
#LYRICSPATH:;
#CDTITLE:;
#MUSIC:The Real Entertainers.mp3;
#MUSICLENGTH:98.821;
#OFFSET:-0.040;
#SAMPLESTART:81.065;
#SAMPLELENGTH:12.000;
#SELECTABLE:YES;
#BPMS:0.000=124.000;
#STOPS:;
#BGCHANGES:;
#FIRSTBEAT:8.000;

#LASTBEAT:203.000;

#SONGFILENAME:Songs/ERICth MIX 2nd Style/Real Entertainers/emtertainers.sm;

#HASMUSIC:1;

#HASBANNER:1;


//---------------dance-single - MANIAC----------------
#NOTES:
     dance-single:
     MANIAC:
     hard:
     7:
     0.396,0.437,0.152,0.233,0.005,236.000,15.000,23.000,0.000,0.000:

0000
0000
0000
0000
,
0000
0000
0000
0000
,
1000
0000
1000
0000
1000
0001
1000
0001
,
0000
0000
1000
0100
0010
0100
1000
0000
,
2000
0000
0000
0000
,
3001
0000
0010
0001
0100
0000
0010
0001
,
0200
0000
2300
0000
0000
0000
0000
3000
,
0000
0000
0000
0110
,
2002
0000
0000
3003
,
0000
0000
1000
0100
0001
0000
1000
0100
,
0002
0000
0203
0000
1300
0100
0001
0000
,
0001
0100
1000
0000
1000
0010
1000
0010
,
0200
0010
0001
0310
,
0000
0000
1000
0010
0001
0000
1000
0010
,
0002
0023
0030
0000
,
1000
0001
1000
0000
1000
0200
0000
0300
,
0010
0100
0001
0000
0010
0100
0001
0000
,
0010
0100
0001
0000
0110
0000
0110
0000
,
0010
1000
0100
0000
0010
1000
0100
0000
,
0010
1000
0100
0000
1001
0000
1001
0000
,
0010
1000
0010
1000
0001
0100
0001
0100
,
0010
1000
0010
1000
0001
0100
0001
0100
,
0001
1000
0001
1000
0100
0010
0100
0000
,
1100
0101
1001
0110
,
1000
0100
1000
1000
,
0100
0001
0100
0001
,
0000
1000
0001
0000
0000
1000
0001
0000
,
0000
0000
0000
1000
0000
0000
0002
0000
2000
0000
0000
0000
0000
0000
0000
0000
0000
0000
3003
0000
0000
0000
0000
0000
,
0000
0010
0000
0100
0000
0001
0000
1000
,
0000
0100
0000
0001
0000
0010
1000
0000
,
1000
0100
1000
0000
1000
0100
1000
0000
,
1000
0100
1000
0100
1000
0000
1100
0000
,
0001
0010
0001
0000
0001
0010
0001
0000
,
0001
0010
0001
0010
0001
0000
0011
0000
,
0010
0001
0010
0001
1000
0100
1000
0100
,
0010
0001
0010
0001
1000
0100
1000
0100
,
2000
3200
0302
0023
,
1030
0000
1000
1000
1000
0000
1000
0000
,
0010
1000
0100
0000
0010
0001
0100
0000
,
0010
1000
0100
0000
0010
0100
0010
0100
,
0010
1000
0100
0000
0010
0001
0100
0000
,
1000
1000
0001
0001
0100
0100
0100
0000
,
2002
0000
0000
0000
,
0003
0000
0100
0000
3100
0000
1000
0001
,
1000
0000
0010
0100
0000
0001
0000
1000
,
0000
0100
0000
0100
0000
0001
1000
0000
,
0220
0000
0000
0330
,
0110
0000
1000
0001
0010
0000
0010
0100
,
0020
0230
0000
0300
,
1000
0001
0010
0010
,
1000
1000
0001
0001
0010
0010
0010
0000;

//---------------dance-single - ANOTHER----------------
#NOTES:
     dance-single:
     ANOTHER:
     medium:
     5:
     0.262,0.282,0.030,0.061,0.000,172.000,3.000,6.000,0.000,0.000:

0000
0000
0000
0000
,
0000
0000
0000
0000
,
0000
0000
0000
0000
,
0000
0000
0000
0000
,
0020
0000
0000
0000
,
0000
0030
1000
0000
0100
0000
0010
0100
,
0010
0200
0000
0000
,
0000
0000
0000
0000
0000
0000
0001
0300
,
1000
0100
0001
0100
,
1000
0100
0001
0100
,
1000
0010
0001
0010
,
1000
0010
0001
1000
,
0001
0000
1000
0000
,
0001
0000
1000
0000
0100
0000
0010
0001
,
0010
0002
0000
0000
,
1000
0000
0000
0000
1000
1003
0000
0000
,
0100
0000
0010
0000
1000
0100
0010
0000
,
0001
0000
0001
0100
,
0010
0100
0001
0000
0000
0000
0001
0000
,
0100
0000
0010
0000
0100
0100
0010
0000
,
0001
1000
0100
0000
,
0001
0100
0010
0010
,
1000
0001
0100
0001
,
0001
0001
0000
1001
,
0001
1000
0100
1000
,
0010
0000
1000
0000
0001
0100
0001
0100
,
0000
0001
1000
0100
,
0010
0001
0010
0002
0000
0000
0000
0000
,
0000
0000
0000
0000
,
0000
0000
0000
0000
0000
1003
0001
0000
,
0100
0000
1000
0000
0010
1000
0100
0000
,
0001
0100
0010
1000
,
0010
0000
0011
0000
0010
0001
0100
0000
,
0100
1000
1001
0000
,
0001
1000
0100
0010
,
0010
0100
0001
1000
,
0010
0000
0100
0000
0010
0001
0010
0000
,
0001
0000
0000
0000
1000
1000
1000
0000
,
0100
0000
0010
0000
,
0001
0000
1000
0000
0001
1000
0001
1000
,
0000
0001
0000
0010
,
0020
0000
0000
0000
1000
0000
1000
0030
,
1000
0100
0010
0100
,
0010
0001
1000
0010
,
1000
0010
0100
0001
,
0100
0000
0001
1000
0001
0100
0001
0000
,
1000
0100
0010
0001
,
1000
0000
0010
1000
0010
0000
1000
0100
,
0010
0002
0000
0000
,
0000
0000
0000
0000
1000
0000
1000
0003
,
1000
0100
1000
0100
1000
0100
1000
0000;

//---------------dance-single - BASIC----------------
#NOTES:
     dance-single:
     BASIC:
     easy:
     4:
     0.184,0.231,0.030,0.051,0.000,119.000,3.000,5.000,0.000,0.000:

0000
0000
0000
0000
,
0000
0000
0000
0000
,
0000
0000
0000
0000
,
0000
0000
0000
0000
,
0010
0000
0010
0000
,
0010
0000
0000
0100
,
0100
0000
0000
0000
,
0010
0000
0100
0010
,
0200
0000
0010
0000
,
0010
0301
0100
1000
,
0020
0000
1000
1000
,
1000
0000
0100
0100
,
0130
0100
0001
1000
,
0000
0100
0001
0000
,
1000
0000
0010
0000
,
0010
0010
0010
0000
,
1001
0000
0000
0000
,
0011
0000
0000
0000
,
0100
0000
0000
0000
,
0010
0000
0100
0000
,
0010
0000
0001
0000
,
1000
0000
0010
0000
,
0001
0000
1000
0000
,
0100
0100
0100
0110
,
0001
0000
0100
0000
,
0000
0010
1000
0001
,
0000
0100
0000
0001
,
1000
0000
0020
0000
,
1030
0100
0000
0001
,
0100
0010
0000
0000
,
0001
0010
1000
0100
,
0100
0000
0100
0100
,
0000
0010
0000
0010
,
0000
0010
0010
0000
,
0001
0000
1000
0000
,
0010
0000
0000
0000
,
0100
0000
0001
0000
,
1000
0000
0010
0010
,
0001
0001
1000
1000
,
0001
0001
1000
1000
,
0001
0001
1000
1000
,
0002
0000
0000
0003
,
0010
0100
1000
0000
,
0001
0010
0100
0100
,
0100
0000
0000
0001
,
0000
1000
0000
0010
,
0100
0000
0001
1000
,
0100
0020
0000
0100
,
0130
0000
0001
1000
,
0000
0010
0001
1000
,
0100
0100
0010
0100;
